Last news

Site de rencontre message original

Ce brise-glace je lutilise dans différentes situations, comme un les femmes cherchant de l'homme dans capitale premier message après avoir pris le numéro dune fille en journée ou en soirée, mais aussi en tant que message de relance.Un peu comme


Read more

Rencontre de sa flamme jumelle

Autre chose il est important également de savoir que ce nest pas parce que lon rencontre sa flamme non, il est possible de passer a côté de sa flamme jumelle, ou de ne pas supporter la les femmes divorcées cherchent


Read more

Services de femmes pour les hommes

Si les inégalités se réduisent légèrement (elles étaient de 27 en 1995 elles restent très marquées parmi les cadres et les hauts revenus.Fr Comme lindique le plan daction du Département des affaires de désarmement, Intégrer une démarche déquité entre les


Read more

Dans la poursuite du bonheur de l'homme réel


dans la poursuite du bonheur de l'homme réel

Le bonheur est une manière d'être, or les manières s'apprennent.
Jean Giraudoux, Électre, Grasset (1937) 1, le bonheur n'a jamais été le lot de ceux qui s'acharnent.Wav Pre-gap 1er rencontre internet length 0:00:01.32 Peak level.8 Extraction speed.2 X Track quality 100.0 Test CRC FB1E337D Copy CRC FB1E337D Track not present in AccurateRip database Copy OK Track 7 Filename C:UsersDeeMKyDesktopM Pokora - A la poursuite du bonheur (2012) flac07.Exactement comme le malheur.Grégoire Delacourt, On ne voyait que le bonheur 1 Le bonheur ne se décrète pas, ne se convoque pas, mais se cultive et se construit peu à peu dans la durée.Il peut être si douloureux, il peut faire vaciller, anéantir.John Barrymore 1 Le bonheur est une telle ivresse, une telle violence qu'il emporte tout.
Wav Pre-gap length 0:00:01.98 Peak level.8 Extraction speed.3 X Track quality 100.0 Test CRC 346D685F Copy CRC 346D685F Track not present in AccurateRip database Copy OK Track 8 Filename C:UsersDeeMKyDesktopM Pokora - A la poursuite du bonheur (2012) flac08.
Wav Pre-gap length 0:00:01.41 Peak level.8 Extraction speed.5 X Track quality 100.0 Test CRC AFC37477 Copy CRC AFC37477 Track not present in AccurateRip database Copy OK Track 9 Filename C:UsersDeeMKyDesktopM Pokora - A la poursuite du bonheur (2012) flac09.
; et toutes ces choses cependant peuvent être des éléments de félicité : car le bonheur n'est autre que la possibilité de vivre selon ses goûts.Sénèque, La vie heureuse - La brièveté de la vie 1 Le vrai bonheur s'installe, en premier lieu, dans la jouissance de son être et dans son prochain; dans l'amitié et la conversation avec quelques compagnons choisis.Wav Pre-gap length 0:00:02.00 Peak level.8 Extraction speed.2 X Track quality 100.0 Test CRC 571dadb3 Copy CRC 571dadb3 Track not present in AccurateRip database Copy OK Track 2 Filename C:UsersDeeMKyDesktopM Pokora - A la poursuite du bonheur (2012) flac02.Stefan Zweig, Vingt-quatre heures de la vie d'une femme, trad.Wav Pre-gap length 0:00:01.60 Peak level.8 Extraction speed.1 X Track quality 100.0 Test CRC 0C0BAF36 Copy CRC 0C0BAF36 Track not present in AccurateRip database Copy OK Track 12 Filename C:UsersDeeMKyDesktopM Pokora - A la poursuite du bonheur (2012) flac12.




[L_RANDNUM-10-999]
Sitemap